Wrong planet dating

06-Dec-2014 03:57 by 4 Comments

Wrong planet dating

A low-numbered rank means that your website gets a lot of visitors.

wrong planet dating-1wrong planet dating-29wrong planet dating-19wrong planet dating-42

The reason is pretty simple – the majority of visitors are usually in a rush and no one is fond of waiting half a century before the website finally loads its content or fails to load.

At the last check on 2016-08-30, website load time was 0.05.

The highest load time is 0.07, the lowest load time is 0.03, the average load time is 0.05.

Wrong Planet comes up in the special education curriculum of many universities in the United States.

Wrong Planet is an album released in 1977 by Todd Rundgren's band, Utopia.

It delivers a markedly trimmed down, pop-oriented, and somewhat cynical direction for the band following the perniciously optimistic and progressively influenced previous album, Ra. peaked at #77 on the Billboard album chart in 1977.

"Love is the Answer" later became a hit for England Dan & John Ford Coley, charting #1 on the Billboard Adult Contemporary list in 1979.

All rights reserved au CDtect: CD records authenticity detector, version 0.8.2 Copyright (c) 2004 Oleg Berngardt. For the information given by users of a site, the Administration of a site of responsibility doesn't bear.

1.6.0 RC1 build 1.6.0.1 Copyright (c) 2008-2010 y-soft. After you have downloaded music, you in a current of day are obliged it to remove.

Love is the Answer () Line-up / Musicians: - Roger Powell / vocals, keyboards, trumpet, Powell Probe - Todd Rundgren / vocals, guitar, saxophone, engineer - Kasim Sulton / vocals, bass guitar - John "Willie" Wilcox / vocals, drums EAC extraction logfile from 23. Wrong Planet (MFSL) Used drive : TSSTcorp CD/DVDW SH-S182M Adapter: 1 ID: 0 Read mode : Secure with NO C2, accurate stream, disable cache Read offset correction : 6 Overread into Lead-In and Lead-Out : No Used output format : C:\Program Files\FLAC\(User Defined Encoder) 128 k Bit/s Additional command line options : -8 -V -T "ARTIST=%a" -T "TITLE=%t" -T "ALBUM=%g" -T "DATE=%y" -T "TRACKNUMBER=%n" -T "GENRE=%m" -T "COMMENT=EAC FLAC -8" %s Other options : Fill up missing offset samples with silence : Yes Delete leading and trailing silent blocks : No Installed external ASPI interface Track 1 Filename C:\Documents and Settings\Family\My Documents\Downloads\Utopia - Oops Wrong Planet (1977) [FLAC] {MFSL UDCD 637} - Pre-gap length .00 Peak level 99.9 % Track quality 100.0 % Test CRC 2DED3E2A Copy CRC 2DED3E2A Copy OK Track 2 Filename C:\Documents and Settings\Family\My Documents\Downloads\Utopia - Oops Wrong Planet (1977) [FLAC] {MFSL UDCD 637} - Peak level 99.8 % Track quality 100.0 % Test CRC F81EAC4B Copy CRC F81EAC4B Copy OK Track 3 Filename C:\Documents and Settings\Family\My Documents\Downloads\Utopia - Oops Wrong Planet (1977) [FLAC] {MFSL UDCD 637} - Love in Peak level 100.0 % Track quality 100.0 % Test CRC 0D849741 Copy CRC 0D849741 Copy OK Track 4 Filename C:\Documents and Settings\Family\My Documents\Downloads\Utopia - Oops Wrong Planet (1977) [FLAC] {MFSL UDCD 637} - Crazy Lady Peak level 88.8 % Track quality 100.0 % Test CRC 8F02EDEB Copy CRC 8F02EDEB Copy OK Track 5 Filename C:\Documents and Settings\Family\My Documents\Downloads\Utopia - Oops Wrong Planet (1977) [FLAC] {MFSL UDCD 637} - Back on the Peak level 100.0 % Track quality 100.0 % Test CRC 072D4E30 Copy CRC 072D4E30 Copy OK Track 6 Filename C:\Documents and Settings\Family\My Documents\Downloads\Utopia - Oops Wrong Planet (1977) [FLAC] {MFSL UDCD 637} - Marriage of Heaven and Peak level 98.8 % Track quality 100.0 % Test CRC 390296D3 Copy CRC 390296D3 Copy OK Track 7 Filename C:\Documents and Settings\Family\My Documents\Downloads\Utopia - Oops Wrong Planet (1977) [FLAC] {MFSL UDCD 637} - Peak level 99.9 % Track quality 100.0 % Test CRC 8C4E3B3C Copy CRC 8C4E3B3C Copy OK Track 8 Filename C:\Documents and Settings\Family\My Documents\Downloads\Utopia - Oops Wrong Planet (1977) [FLAC] {MFSL UDCD 637} - Abandon Peak level 98.4 % Track quality 100.0 % Test CRC DCD19241 Copy CRC DCD19241 Copy OK Track 9 Filename C:\Documents and Settings\Family\My Documents\Downloads\Utopia - Oops Wrong Planet (1977) [FLAC] {MFSL UDCD 637} - Peak level 99.9 % Track quality 100.0 % Test CRC E6A191E3 Copy CRC E6A191E3 Copy OK Track 10 Filename C:\Documents and Settings\Family\My Documents\Downloads\Utopia - Oops Wrong Planet (1977) [FLAC] {MFSL UDCD 637} - My Peak level 93.2 % Track quality 100.0 % Test CRC 64F11AB7 Copy CRC 64F11AB7 Copy OK Track 11 Filename C:\Documents and Settings\Family\My Documents\Downloads\Utopia - Oops Wrong Planet (1977) [FLAC] {MFSL UDCD 637} - Rape of the Peak level 99.9 % Track quality 100.0 % Test CRC 289789D9 Copy CRC 289789D9 Copy OK Track 12 Filename C:\Documents and Settings\Family\My Documents\Downloads\Utopia - Oops Wrong Planet (1977) [FLAC] {MFSL UDCD 637} - Love Is the Peak level 99.7 % Track quality 100.0 % Test CRC DD4388DD Copy CRC DD4388DD Copy OK No errors occured End of status report----------------------- DON'T MODIFY THIS FILE ----------------------- PERFORMER: au CDtect Task Manager, ver. ------------------------------------------------------------------------------------------------------------------------------------------- All materials placed on a site, belong to corresponding legal owners and are placed exclusively in the fact-finding purposes.

Alexa traffic rank shows the popularity of your site relative to other sites.

is ranked 56,227th in the world (among the 30 million domains).

  1. dating profile help for women 04-Nov-2014 19:59

    = new Date(); Time((new Date()).value Of() - 1000*60*60*24*90); self.new_streams = (Full Year() * 10000 + (Month()+1) * 100 + Date()); self.bwidth = window.inner Width; self.online = { 'won_list' : { id : 'won_list', perpage : 60, rowcount: 9, curpage : 1, sortby : 'F', filter : function (element, index, array) { return ( element['s'] == 'Cams Exclusive' || ( element['r'] ! online ) { var link = '/' + stream_name } else { var link = '